Lucifer's Friend - Too Late To Hate (2016) [Mp3][VariousHost]

  • Iniciador del tema Vasquez
  • Fecha de inicio

Vasquez

Vip
31 Dic 2018
22.742
1
c1155960-4020-495d-a30f-d3373c93e6e4.png

Artist: Lucifer's Friend
Title: Too Late To Hate
Year Of Release: 2016
Label: Lucifer's Records #LF003CD
Genre: Progressive Rock, Hard Rock
Quality: EAC Rip -> FLAC (Img+Cue,Log) / MP3 CBR320
Total Time: 00:47:59
Total Size: 421 / 149 Mb (Full Scans)

Lucifer's Friend is a German hard rock band, formed in Hamburg in 1970, fronted by British vocalist John Lawton (of Uriah Heep), guitarist Peter Hesslein, bassist Dieter Horns, keyboardist Peter Hecht, and drummer Joachim Reitenbach. The group was an early practitioner of heavy metal and progressive rock; they also incorporated elements of jazz and fusion into their music, especially in their fourth album Banquet of 1974. Evolved from Asterix and comprised of 3/4 of The German Bonds, the group officially disbanded in 1982. They briefly reunited (1993-1997) as Lucifer's Friend II, releasing one album before disbanding once again. Original members John Lawton (ex-Uriah Heep), Peter Hesslein and Dieter Horns thrilled fans when they put Lucifer's Friend back together in 2015. They've been headlining rock festivals ever since, but this is their first true new studio album since 1981! A bonus live version of "When You're Gone" joins "Demolition Man," "I Will Be There," "Sea of Promises," "Tears" and more.
Official Website | Wiki | All Music

Track List:

01. Demolition Man [4:16]
02. Jokers & Fools [4:22]
03. When Children Cry [4:23]
04. Straight For The Heart [3:22]
05. Tell Me Why [4:07]
06. Don't Talk To Strangers [3:46]
07. I Will Be There [4:00]
08. This Time [5:03]
09. Tears [4:19]
10. Sea Of Promises [4:53]
11. Brothers Without A Name [3:21]
12. When You're Gone (Live) [2:07]

Personnel:
John Lawton (Uriah Heep) - vocals
Peter Hesslein - guitar, keyboards
Dieter Horns - bass
Jogi Wichmann - keyboards
Stephan Stoppel Eggert - drums, percussion
Pablo Escajola - congas (track: 4)

EAC LogExact Audio Copy V1.3 from 2. September 2016

EAC extraction logfile from 12. August 2019, 15:51

Lucifer's Friend / Too Late To Hate

Used drive : ASUS DRW-24D5MT Adapter: 1 ID: 0

Read mode : Secure
Utilize accurate stream : Yes
Defeat audio cache : Yes
Make use of C2 pointers : No

Read offset correction : 6
Overread into Lead-In and Lead-Out : No
Fill up missing offset samples with silence : Yes
Delete leading and trailing silent blocks : No
Null samples used in CRC calculations : Yes
Used interface : Native Win32 interface for Win NT & 2000

Used output format : User Defined Encoder
Selected bitrate : 128 kBit/s
Quality : High
Add ID3 tag : No
Command line compressor : C:\Program Files (x86)\Exact Audio Copy\FLAC\FLAC.EXE
Additional command line options : -V -8 -T "Date=%year%" -T "Genre=%genre%" %source%

TOC of the extracted CD

Track | Start | Length | Start sector | End sector
---------------------------------------------------------
1 | 0:00.00 | 4:16.17 | 0 | 19216
2 | 4:16.17 | 4:21.47 | 19217 | 38838
3 | 8:37.64 | 4:22.62 | 38839 | 58550
4 | 13:00.51 | 3:22.09 | 58551 | 73709
5 | 16:22.60 | 4:07.20 | 73710 | 92254
6 | 20:30.05 | 3:45.55 | 92255 | 109184
7 | 24:15.60 | 4:00.03 | 109185 | 127187
8 | 28:15.63 | 5:03.33 | 127188 | 149945
9 | 33:19.21 | 4:18.58 | 149946 | 169353
10 | 37:38.04 | 4:53.06 | 169354 | 191334
11 | 42:31.10 | 3:21.03 | 191335 | 206412
12 | 45:52.13 | 2:06.41 | 206413 | 215903

Range status and errors

Selected range

Filename F:\ЕАС\rwa12\Lucifer's Friend - Too Late To Hate.wav

Peak level 99.2 %
Extraction speed 6.7 X
Range quality 100.0 %
Test CRC 00F4527B
Copy CRC 00F4527B
Copy OK

No errors occurred
AccurateRip summaryTrack 1 accurately ripped (confidence 6) [02F268B6] (AR v2)
Track 2 accurately ripped (confidence 6) [809F6A53] (AR v2)
Track 3 accurately ripped (confidence 6) [2194EB3A] (AR v2)
Track 4 accurately ripped (confidence 6) [0CA48E8B] (AR v2)
Track 5 accurately ripped (confidence 6) [DE2122F2] (AR v2)
Track 6 accurately ripped (confidence 6) [27F048FA] (AR v2)
Track 7 accurately ripped (confidence 6) [93CA5AE7] (AR v2)
Track 8 accurately ripped (confidence 6) [3844EB5E] (AR v2)
Track 9 accurately ripped (confidence 6) [87F7207E] (AR v2)
Track 10 accurately ripped (confidence 6) [BB76E56E] (AR v2)
Track 11 accurately ripped (confidence 6) [A297E6C1] (AR v2)
Track 12 accurately ripped (confidence 6) [3394196F] (AR v2)All tracks accurately ripped

End of status report

---- CUETools DB Plugin V2.1.6

[CTDB TOCID: QTNdvUrCB.5B2q7YiyMvlk6EOH4-] found
Submit result: QTNdvUrCB.5B2q7YiyMvlk6EOH4- has been confirmed
Track | CTDB Status
1 | (20/20) Accurately ripped
2 | (20/20) Accurately ripped
3 | (20/20) Accurately ripped
4 | (20/20) Accurately ripped
5 | (20/20) Accurately ripped
6 | (19/20) Accurately ripped
7 | (19/20) Accurately ripped
8 | (20/20) Accurately ripped
9 | (20/20) Accurately ripped
10 | (20/20) Accurately ripped
11 | (20/20) Accurately ripped
12 | (20/20) Accurately ripped

==== Log checksum BBD5AC3480E65D9D05660A281CD509D493DD9763CEADE95B15F66813F5599DC6 ====DOWNLOAD:

LOSSLESS

MP3

DOWNLOAD
nitroflare
Código:
http://nitroflare.com/view/1C463AF0C01BF30/dYL6rB6x_LcfrsFrndTL.rar
http://nitroflare.com/view/A2DAC39B2B7B447/dYL6rB6x_LcfrsFrndTL_.rar
 
AdBlock Detectado

Lo entendemos, ¡los anuncios son molestos!

El software de bloqueo de anuncios hace un gran trabajo al bloquear anuncios, pero también bloquea funciones útiles de nuestro sitio web. Para obtener la mejor experiencia en el sitio, desactiva tu AdBlocker.

He desactivado AdBlock